2024 Pantera fucking hostile - Pantera - Fucking Hostile (100mm x 75mm) Sew-On Patch. $9.99. Select Title. Default Title. Default Title. Add Quantity:.

 
Best Pantera Fucking Hostile Since 1981 XXX Stronger Than All Gift Top – After approximately 2 weeks you will receive the item. Pantera Fucking Hostile .... Pantera fucking hostile

7 Mar 2012 ... Comments4 · PANTERA - Fucking Hostile - drum cover · Pantera "Cemetery Gates" REACTION & ANALYSIS by Vocal Coach/Opera Singer · SLIPKNOT - ...Fucking hostile We stand alone Come meet your maker boy, some things you can't enjoy Because of Heaven/Hell, a fucking wive's tale They put it in your head, then put you in your bed He's watching - say your prayers 'Cause God is everywhere Now I'll play a man learning priesthood Who's about to take the ultimate test in lifeFucking Hostile Tab by Pantera. Free online tab player. One accurate version. Recommended by The Wall Street JournalAnother Badass live by PanterA, Fucking Hostile Live at San Jose, CA 7 Feb, 1997R.I.P DIMEBAG DARRELL - HEROES NEVER DIESAhí me di la paja de subtitular la canción lo más decente posible.....ya que no encontre ninguna definición convincente a la frase "IT FITS THE ATTITUDE" la...Mar 12, 2023 · 43 views, added to favorites 6 times. Tuning: Eb Ab Db Gb Bb Eb. Capo: no capo. Author procraphix [a] 41. Last edit on Mar 12, 2023. View official tab. We have an official Fucking Hostile tab made by UG professional guitarists.Check out the tab ». Lyrics:Almost every dayI see the same faceOn broken picture tubeIt fits the attitudeIf you could see yourselfYou put you on a shelfYour verbal masturbateProm...FILE "Pantera - Vulgar Display Of Power (7567-91758-2).flac" WAVE TRACK 01 AUDIO TITLE "Mouth For War" PERFORMER "Pantera" INDEX 01 00:00:00 TRACK 02 AUDIO TITLE "A New Level" PERFORMER "Pantera" INDEX 01 03:57:17 TRACK 03 AUDIO TITLE "Walk" PERFORMER "Pantera" INDEX 01 07:54:52 TRACK 04 AUDIO TITLE "Fucking Hostile" PERFORMER "Pantera" INDEX ...Produto FANLAB Camiseta Pantera - Fucking Hostile II - Preta. Confira a oferta e compre online!Watch. Home. LiveI do not own any rights to this song.Album: Vulgar Display of Power (1992)Kansas contains no deserts as scientifically defined as barren areas with little rainfall. Settlers called the area a desert because it initially appeared hostile to growing crops and livestock.Twisted Sister - "I Wanna Rock" I wanna rock! (rock) I wanna rock! (rock) I want to rock! (rock) I wanna rock! (rock) Turn it down you say But all I got to say to you is time and time again I say, "no!" No! No, no, no, no, no!... Pantera "Fucking Hostile": One, two, three, four Almost every day, I see the same face On broken picture tube, it ...Listen to Fucking Hostile on Spotify. Pantera · Song · 1992. Pantera · Song · 1992. Listen to Fucking Hostile on Spotify. Pantera · Song · 1992. ...Now I'll play a public servant Now I'll play a public servant Agora eu irei bancar um servidor público To serve and protect To serve and protect Para servir e proteger By the law and the state By the law and the state Pela lei e pelo estado I'd bust the punks I'd bust the punks Eu arrebentaria os punks That rape steal and murder That rape ...Pantera. Fucking Hostile - 2012 Remaster. About Pantera. Pantera is an American heavy metal band from Arlington, Texas, that formed in 1981. The group originally comprised vocalist and frontman Terry Glaze, guitarists Diamond Darrell (later known as Dimebag Darrell) and Rex Brown, and drummer Vinnie Paul. They have released 5 studio albums, …Fucking Hostile Tab. by Pantera. 92,161 views, added to favorites 528 times. Capo: no capo. Author Unregistered. 1 contributor total, last edit on Dec 24, 2016. View official tab. We have an official Fucking Hostile tab made by UG professional guitarists.Check out the tab ».Another Badass live by PanterA, Fucking Hostile Live at San Jose, CA 7 Feb, 1997R.I.P DIMEBAG DARRELL - HEROES NEVER DIES[Chorus] Hold your mouth for the war Use it for what it's for Speak the truth about me Determined [Solo] [Bridge] There comes a time within everyone To close your eyes to what's real [Outro] No ...In the world of stress research, anger and hostility are the most widely studied behavioral characteristics. S In the world of stress research, anger and hostility are the most widely studied behavioral characteristics. Studies indicate tha...One, two, three, four! Almost every day I see the same face On broken picture tube It fits the attitude If you could see yourself You put you on a shelf Your verbal masturbate Promise to nauseate Today I'll play the part of non-parent Not make a hundred rules for you to know about yourself Not lie and make you believe what's evil Is making love and making friends and meeting God your own way ...2 days ago · Fucking Hostile 10. Planet Caravan (BLACK SABBATH cover) 11. Walk 12. Domination / Hollow 13. Cowboys From Hell. Encore: 14. Slaughtered 15. Revolution Is My Name. The reformed PANTERA kicked off ... Pantera released and sold their early albums themselves – with sales eventually reaching the 1000 mark – but times were changing. ... There’s little to say about Fucking Hostile not relayed by the song’s title, and even when they drop the tempo, on the likes of Hollow and This Love, there’s an almost insidious heaviness to the band ...Mar 24, 2017 · Watch the video for Fucking Hostile (live) from Pantera's Extreme Steel Plus for free, and see the artwork, lyrics and similar artists. The latter group added a new chapter — or maybe more of a really awesome footnote — to that relationship recently. To celebrate Phil Anselmo' s 45th birthday, Slayer invited the singer onstage during the band's Heavy by the Sea Festival set in Athens, Greece, to cover Pantera's classic "Fucking Hostile," the face-smashing mission …Pantera Fucking Hostile Live @ Donington 1994Album Vulgar Display Of Power [1992]Pantera Lyrics - All the great songs and their lyrics from Pantera on Lyrics.com. Login . ... Fucking Hostile: 2:48: I'm Broken: 4:24: 5 Minutes Alone: 5:49: Drag the ...Album: Vulgar Display Of PowerYear: 1992watch 1080p for HQ soundI only post these vids for entertainment purposes onlyChoose and determine which version of Fucking Hostile chords and tabs by Pantera you can play. Last updated on 09.14.2016ARTIST. Pantera. ALBUM. Fucking Hostile. LICENSES. WMG (on behalf of Atlantic 0191); BMI - Broadcast Music Inc., LatinAutorPerf, LatinAutor - Warner Chappell, CMRRA, PEDL, Warner Chappell,...Video footage of NEW YEARS DAY performing an acoustic cover version of the PANTERA classic "Fucking Hostile" on February 7 at Sony Music Studios in New York City can be seen below.. NEW YEARS DAY ...Pantera – Fucking Hostile (3).mid + 100k midi files for free download Various rhythms for music production, synthesia, yamaha, roland, korg, casio keyboards, among others.Watch. Home. LiveMar 12, 2023 · 43 views, added to favorites 6 times. Tuning: Eb Ab Db Gb Bb Eb. Capo: no capo. Author procraphix [a] 41. Last edit on Mar 12, 2023. View official tab. We have an official Fucking Hostile tab made by UG professional guitarists.Check out the tab ». Get the best Fucking Hostile Bass tab by Pantera @ 911Tabs.Com - tabs search engine. Last updated on 09.14.2016Pantera - Fucking Hostile (100mm x 75mm) Sew-On Patch. $9.99. Select Title. Default Title. Default Title. Add Quantity:.Fucking Hostile Tab. by Pantera. 92,161 views, added to favorites 528 times. Capo: no capo. Author Unregistered. 1 contributor total, last edit on Dec 24, 2016. View official tab. We have an official Fucking Hostile tab made by UG professional guitarists.Check out the tab ».So what—to use one of the new album’s song titles—makes Anselmo so “Fucking Hostile”? “There’s a lot of things that make him angry,” explains Paul, “but he’s not necessarily writing anger in a negative fashion. He’s angry and he’s expressing a viewpoint, but it’s also an anger that turns positive, you know what I’m ...Fucking Hostile 11. Planet Caravan (BLACK SABBATH cover) 12. Walk 13. Domination / Hollow 14. Cowboys From Hell. PANTERA's surviving members Philip Anselmo (vocals) and Rex Brown (bass) ...[Chorus] Hold your mouth for the war Use it for what it's for Speak the truth about me Determined [Solo] [Bridge] There comes a time within everyone To close your eyes to what's real [Outro] No ...10 Sept 2020 ... Pantera- Fucking Hostile [Bass Cover] · Comments4.Let's review the charts and indicators....JBLU Employees of TheStreet are prohibited from trading individual securities. Let's look at what separates great trading from bad. These regional banks offer above-average yields and reliable d...Discover Pantera's top songs & albums, curated artist radio stations & more. Listen to Pantera on Pandora today! ... Fucking Hostile. e. explicit. Pantera From the album Vulgar Display of Power. Create Station. Start Station. Play Song. Play Song. Share. Share. Lyrics. See All Lyrics Lyrics. One, two, three, four! Almost every day."Copyright Disclaimer Under Section 107 of the Copyright Act 1976, allowance is made for "fair use" for purposes such as criticism, comment, news reporting, ...Vince! Come meet your maker, boy Some things you can′t enjoy Because of heaven, hell A fucking wives tale They put it in your head Then put you in your bedPantera "Fucking Hostile": One, two, three, four Almost every day, I see the same face On broken picture tube, it fits the att...Dec 1, 2008 · Lyrics:Almost every dayI see the same faceOn broken picture tubeIt fits the attitudeIf you could see yourselfYou put you on a shelfYour verbal masturbateProm... Fucking Hostile is a song by Pantera with a tempo of 94 BPM. It can also be used double-time at 188 BPM. The track runs 2 minutes and 49 seconds long with a F♯/G♭ key and a minor mode. It has high energy and is somewhat danceable with a …Dec 2, 2022 · About Press Copyright Contact us Creators Advertise Developers Terms Privacy Policy & Safety How YouTube works Test new features NFL Sunday Ticket Press Copyright ... Facebook: http://www.facebook.com/Pantera Band: Pantera Album: Vulgar Display Of Power (Remastered) [20th Anniversary Deluxe Edition] (2012) Genre: …Choose and determine which version of Fucking Hostile chords and tabs by Pantera you can play. Last updated on 09.14.2016Pantera Fucking Hostile T-Shirt · 100% cotton · Wash cold; low dry · Imported · Officially licensed ...You can buy my albums or singles here:DIRECT FROM ME (LOSSLESS) http://bit.ly/2usJ3lqITUNES http://apple.co/1Lni4PRAMAZON http://amzn.to/1U2rqUaGOOGLE ...One, two, three, four! Almost every day I see the same face On broken picture tube It fits the attitude If you could see yourself You put you on a shelf Your verbal masturbate Promise to nauseate Today I'll play the part of non-parent Not make a hundred rules for you to know about yourself Not lie and make you believe what's evil Is making love and making friends and meeting God your own way ...Jun 25, 1993 · Fucking Hostile (Biomechanical Mix) Lyrics. 3. By Demons ... More Pantera albums Live At Dynamo Open Air 1998. The Best of Pantera: Far Beyond the Great Southern Cowboys’ Vulgar Hits! Fucking Hostile Lyrics: One, two, three, four / Almost every day, I see the same face / On broken picture tube, it fits the attitude / If you could see yourself, you put you on a shelf / Your...2-01. Pantera - Mouth For War (03:56) 2-02. Pantera - A New Level (03:57) 2-03. Pantera - Walk (05:15) 2-04. Pantera - Fucking Hostile (02:48) 2-05. Pantera - This Love (06:32) 2-06. Pantera - Rise (04:38) 2-07. Pantera - No Good (Attack The Radical) [Explicit] (04:48) 2-08. Pantera - Live In A Hole (05:00) 2-09. Pantera - Regular People ...In their performance of “5 Minutes Alone,” Robert and Toyah pay homage to Pantera with a worthy cover of the standout track from 1994’s Far Beyond Driven. Robert, of course, is best known as the founding guitarist of prog legends King Crimson , but he gets his metal on while shredding Dimebag’s famous riffs."Fuckin Hostile" by Lenny Dee (DJ) sampled Pantera's "Fucking Hostile". Listen to both songs on WhoSampled, the ultimate database of sampled music, cover songs and remixes.One, two, three, four! Did anybody ever watch the Pantera parody vids on YouTube called Cooking Hostile? I used to love these guys, but I just can't separate their music from the actions of Phil Anselmo anymore. If he mellowed out with age like Fenriz or Axl Rose, it'd be one thing, but he's still the same boozing moron he ever was.Best Pantera Fucking Hostile Since 1981 XXX Stronger Than All Gift Top – After approximately 2 weeks you will receive the item. Pantera Fucking Hostile ...Pantera - Fucking Hostile Bass Tab Subscribe to Plus! Uninterrupted sync with official audio. Track: Rex Brown - Electric Bass (pick) Revised on: 10/19/2023. Fucking Hostile Bass Tab by Pantera. Free online tab player. One accurate version. Recommended by The Wall Street Journal ...Pantera – Fucking Hostile.mid + 100k midi files for free download. Various rhythms for music production, synthesia, yamaha, roland, korg, casio keyboards, among others. Can be used in FL Studio, Ableton Live, Pro Tools, Reaper, Cubase, Propellerhead Reason, Logic, Sonar, Cakewalk, Audacity software. In use with midi controllers and vst plugins.PanterA/ Dimebag Darrell Fucking Hostile Live at monsters of rock - festivale in Donington, England 1994Pantera's setlist can vary depending on the venue and the country the performance is played at however this is the most likely setlist for Pantera Tour: Mouth for War; Primal Concrete Sledge; Hollow; A New Level - 2012 Remaster; Fucking Hostile; Cemetery Gates; Revolution Is My Name; I'm BrokenJun 5, 2011 · I DO NOT OWN SONG OR PICTURESong: Fucking HostileArtist: PanteraAlbum: Vulgar Display of PowerYear: 1992LYRICSOne two three fourAlmost every dayI see the sam... FILE "Pantera - Vulgar Display Of Power (7567-91758-2).flac" WAVE TRACK 01 AUDIO TITLE "Mouth For War" PERFORMER "Pantera" INDEX 01 00:00:00 TRACK 02 AUDIO TITLE "A New Level" PERFORMER "Pantera" INDEX 01 03:57:17 TRACK 03 AUDIO TITLE "Walk" PERFORMER "Pantera" INDEX 01 07:54:52 TRACK 04 AUDIO TITLE "Fucking Hostile" PERFORMER "Pantera" INDEX ... Pantera Bass Tabs with free online tab player. One accurate tab per song. Huge selection of 800,000 tabs. No abusive ads. Tabs. Favorites. My Tabs. Submit Tab ... Fucking Hostile. Pantera. This Love - E standard. Pantera. 13 Steps To Nowhere. Pantera. Hellbound. Pantera. Living Through Me (Hell's Wrath) Pantera. Rise. Pantera. …You can buy my albums or singles here:DIRECT FROM ME (LOSSLESS) http://bit.ly/2usJ3lqITUNES http://apple.co/1Lni4PRAMAZON http://amzn.to/1U2rqUaGOOGLE ...Chords Texts PANTERA Fucking hostile. Chordsound to play your music, study scales, positions for guitar, search, manage, request and send chords, lyrics and sheet musicthis love isn’t just my favorite song off of this album, but also my favorite pantera song EVER, such a fuckin’ banger of a track. 2. ChillNachoSauce • 3 mo. ago. Hollow and this love is fire I feel like walk is now the cringy overplayed song like master of puppets is now... 2. xanhudro • 3 mo. ago. Fucking Hostile.PanterA lyric of Fucking HostileEnjoy!-----Letra de PanterA - Fucking HostileDisfruten!-----O lyric de PanterA do Fucking Hostileap...27 Feb 1992 ... So what—to use one of the new album's song titles—makes Anselmo so “Fucking Hostile”? “There's a lot of things that make him angry,” explains ...Vulgar Display of Power is the sixth studio album by American heavy metal band Pantera. Released on February 25, 1992, through Atco Records, it was the band's second collaboration with producer Terry Date, after having worked with him on their breakthrough album Cowboys from Hell (1990). The album was well received by both critics and fans, and ... Mar 23, 2022 · #Pantera #FuckingHostilet #RockReactionPantera - Fucking HostileThanks for the 13.6K!! Let's get to 20K subs by the end of March!!Follow your boy on the soci... pantera fucking hostilePantera Fucking Hostile T-Shirt · 100% cotton · Wash cold; low dry · Imported · Officially licensed ...Lyrics:Almost every dayI see the same faceOn broken picture tubeIt fits the attitudeIf you could see yourselfYou put you on a shelfYour verbal masturbateProm...Fucking Hostile Tab by Pantera. Free online tab player. One accurate version. Recommended by The Wall Street JournalShop Pantera Fucking Hostile Iron On Patch. One of many items available from our Appliques & Patches department here at Fruugo!Almost every day I see the same face On broken picture tube It fits the attitude If you could see yourself You put you on a shelf Your verbal masturbate Prom... Watch the video for Fucking Hostile from Pantera's Vulgar Display of Power for free, and see the artwork, lyrics and similar artists. Album: Vulgar Display Of PowerYear: 1992watch 1080p for HQ soundI only post these vids for entertainment purposes onlyFucking Hostile - guitar tab. Tab for Fucking Hostile song includes parts for classic/accoustic/eletric guitar. Tab contains additional tracks for bass, drums and keyboards. Fucking Hostile - chords and notes for guitar. This website contains notes, guitar riffs or chords, which will help you to learn this Fucking Hostile song.In their performance of “5 Minutes Alone,” Robert and Toyah pay homage to Pantera with a worthy cover of the standout track from 1994’s Far Beyond Driven. Robert, of course, is best known as the founding guitarist of prog legends King Crimson , but he gets his metal on while shredding Dimebag’s famous riffs."Fuckin Hostile" by Lenny Dee (DJ) sampled Pantera's "Fucking Hostile". Listen to both songs on WhoSampled, the ultimate database of sampled music, cover songs and remixes.Jul 17, 2008 · Pantera Fucking Hostile Live @ Donington 1994Album Vulgar Display Of Power [1992] Shop Pantera Fucking Hostile Iron On Patch. One of many items available from our Appliques & Patches department here at Fruugo!Almost every day I see the same face On broken picture tube It fits the attitude If you could see yourself You put you on a shelf Your verbal masturbate Prom... Pantera fucking hostile

#-----PLEASE NOTE-----# #This file is the author's own work and represents their interpretation of the # #song. You may only use this file for private study, scholarship, or research. # #-----## FUCKING HOSTILE As recorded by Pantera (From the 1992 Album VULGAR DISPLAY OF POWER) Words and Music by Phillip Anselmo, Darrell Lance …. Pantera fucking hostile

pantera fucking hostile

One, two, three, four! Almost every day I see the same face On broken picture tube It fits the attitude If you could see yourself You put you on a shelf Your verbal masturbate Promise to nauseate Today I'll play the part of non-parent Not make a hundred rules for you to know about yourself Not lie and make you believe what's evil Is making love and making friends and meeting God your own way ...pantera fucking hostilePantera - Fucking Hostile (100mm x 75mm) Sew-On Patch. $9.99. Select Title. Default Title. Default Title. Add Quantity:.EnglandPhilDimeVinnie PaulRexQuestions for a hostile work environment investigation should focus on obtaining as many details as possible from the party filing the compliant as well as from the allegedly offending parties. These can include requests for physical proof ...Pantera - Fucking Hostile (Nu Pogodi edit) Pobowobiy. 8:50. pantera live fucking hostile interview. max. 2:55. Pantera -fucking hostile - live Hollywood 1992. Burger Buzz. 2:30. Extreme Energy .. Rock Music. music music. 3:43. Extreme Music - Do You Feel Alive ( Rock) maiktrove. 2:19.Pantera. $55.00. Pantera. Provided to YouTube by Atlantic RecordsFucking Hostile · PanteraVulgar Display of Power℗ 1992 Atlantic Recording Corporation for the United States and WEA In... 25 Aug 2023 ... Pantera - Fucking Hostile [HD] LIVE 8/17/2023 · Comments.Fucking Hostile is a song by Pantera, released on 1992-02-21. It is track number 4 in the album Vulgar Display of Power. Fucking Hostile has a BPM/tempo of 94 beats per minute, is in the key of F# min and has a duration of 2 minutes, 48 seconds. Fucking Hostile is fairly popular on Spotify, being rated between 10-65% popularity on Spotify right ...Fucking Hostile drums play-through!Download my drum tracks and audio cheat sheets: https://www.patreon.com/66samusLive Streams Tuesdays 7PM EST: https://www....Fucking Hostile - Pantera (lyrics video) . Fucking hostle by PanteraYear: 1992Genre: Groove metal - Thrash metalAlbum: Vulgar Display of PowerTracklist:1 Mouth for War2 A New Level3 Walk4... Use this setlist for your event review and get all updates automatically! Get the Philip H. Anselmo & The Illegals Setlist of the concert at Petrovaradin, Novi Sad, Serbia on July 5, 2019 from the Choosing Mental Illness 2019 Euro Tour and other Philip H. Anselmo & The Illegals Setlists for free on setlist.fm!Pantera – Fucking Hostile.mid + 100k midi files for free download. Various rhythms for music production, synthesia, yamaha, roland, korg, casio keyboards, among others. Can be used in FL Studio, Ableton Live, Pro Tools, Reaper, Cubase, Propellerhead Reason, Logic, Sonar, Cakewalk, Audacity software. In use with midi controllers and vst plugins.Pantera Fucking Hostile Embroidered Patch ; Special offer. Choose a Free Gift with any order over £5 ; Daily Noise · Metal & Punk History ; £GBPBritish Pound.22. "It Makes Them Disappear". Reinventing the Steel. In much the same way that Black Sabbath had moments of extreme heaviness that exceeded the group's typical, everyday heaviness ("Under the Sun," "Cornucopia"), Pantera has "It Makes Them Disappear" — arguably the most pulverizing tune in the band's catalog.Machine Head's cover of Pantera's song Fucking Hostile from the Dimebag tribute album released in Metal Hammer.You seem to wonder why Hundreds of people die You're writing tickets man My mom got jumped -- they ran! Now I'll play a public servant To serve and protect By the law and the state I'd bust the punks That rape steal and murder And leave you be If you crossed me I'd shake your hand like a man Not a god To see To bleed Cannot be taught In turn ...Lyrics:Almost every dayI see the same faceOn broken picture tubeIt fits the attitudeIf you could see yourselfYou put you on a shelfYour verbal masturbateProm...Pantera fucking hostile (HD)720p Artist: Pantera Album: Vulgar Display Of Power Year: 1992 Song: Fucking Hostile. Music.Fucking Hostile è un famoso singolo della band groove metal Pantera. Il brano è stato per la prima volta incluso nell'album del 1992 Vulgar Display of Power ...Almost every day I see the same face On broken picture tube It fits the attitude If you could see yourself You put you on a shelf Your verbal masturbate Prom... Fucking Hostile (Biomechanical Mix) Lyrics: 1,2,3,4 / We stand alone / We stand alone / Almost every day / I see the same face / On broken picture tube / It fits the attitude / Oooh f***ing ... Chords Texts PANTERA Fucking hostile. Chordsound to play your music, study scales, positions for guitar, search, manage, request and send chords, lyrics and sheet music27 Aug 2023 ... This video may be inappropriate for some users. Sign in. Pantera-Fucking Hostile. 5 views · 8 hours ago NORTH ISLAND CREDIT UNION ...Fucking Hostile. 2:49; Pantera - Vulgar Display of Power Cassette 1992! #metal #rock #music #pantera #cassette #shorts. 0:33; Lists Add to List. Add to List. Ad. Contributors. petrovichhh, ROCKTER. Report Suspicious Activity. Ad. Ad.The answer, according to experts, is straightforward. Mumbai-based Larsen & Toubro’s (L&T) plan to buy out Bengaluru-headquartered Mindtree has left many asking: Why is an 80-year-old engineering and construction company so interested in a ...this love isn’t just my favorite song off of this album, but also my favorite pantera song EVER, such a fuckin’ banger of a track. 2. ChillNachoSauce • 3 mo. ago. Hollow and this love is fire I feel like walk is now the cringy overplayed song like master of puppets is now... 2. xanhudro • 3 mo. ago. Fucking Hostile.You can now buy Dad a Beer to help Support his work on YouTube HERE ️ https://www.buymeacoffee.com/DadRockYTQYou Can Now Watch DadRock Videos On Odysee Ad FR...Pantera - "Fucking Hostile" Bass Tab. Plain Text Version More Pantera Tabs. Hits: 6204 Rated: 2.39 out of 5 (23 votes) Updated: 2001-05-30 17:22:10 #-----PLEASE NOTE-----# #This file is the author's own work and represents their interpretation of the # #song. You may only use this file for private study, scholarship, or research.Phil Anselmo (another great on the top of my charts) is the man who proved me how to belch it hard and be pummeling with vocals. Props to him..... I will for...Dec 1, 2008 · Lyrics:Almost every dayI see the same faceOn broken picture tubeIt fits the attitudeIf you could see yourselfYou put you on a shelfYour verbal masturbateProm... LUCHANDO POR EL METAL : http://www.facebook.com/pages/Luchando-Por-El-Metal/405109552895381Pantera Tabs with free online tab player. One accurate tab per song. Huge selection of 800,000 tabs. ... Fucking Hostile. Pantera. Primal Concrete Sledge. Pantera ...Covering>> Pantera - Fucking Hostile << (Live Guitar Cover) * * * * * #metalband #metalgirl #dimebagdarrell #deanguitars #girls #pantera #philanselmo...We have an official Fucking Hostile tab made by UG professional guitarists. Check out the tab »22. "It Makes Them Disappear". Reinventing the Steel. In much the same way that Black Sabbath had moments of extreme heaviness that exceeded the group's typical, everyday heaviness ("Under the Sun," "Cornucopia"), Pantera has "It Makes Them Disappear" — arguably the most pulverizing tune in the band's catalog.05 - Fucking Hostile! 06 - Becoming 07 - Sand Blasted Skin 08 - Hard Lines And Sunken Cheeks 09 - Santiago Chant 10 - Crowd Game 11 - Beer Toss 12 - Primal Concrete Sledge 13 - I'm Broken 14 - Suicide Note Pt. 2 15 - War Nerve 16 - This Love 17 - Domination / Hollow 18 - Mouth For War 19 - Planet Caravan 20 - Cowboys From HellPantera - Fucking Hostile (100mm x 75mm) Sew-On Patch. $9.99. Select Title. Default Title. Default Title. Add Quantity:.Pantera 'Fucking Hostile' Lyrics. Truthslap. This song makes me wanna fight a nigger or two. 8 months, 3 weeks ago. 103 1:39:43. Hostile takeover through corporatism? - International Crimes Investigative Committee ... Christine Anderson MEP, Hostile Takeover by the Elites in the Background, May 8 2022. 1 year, 6 months ago. 2308 47:56.The track "Hostile" is simply a live version of "Fucking Hostile" (from Vulgar Display of Power) with a shortened title. During the song "Becoming", the band would end the song with the outro of "Throes of Rejection" from their album Far Beyond Driven . Pantera Fucking Hostile sheet music notes and chords arranged for Bass Guitar Tab. Rock Free preview. Download printable PDF. SKU 415414.Phil Anselmo (another great on the top of my charts) is the man who proved me how to belch it hard and be pummeling with vocals. Props to him..... I will for...Pantera · Song · 2019Now I'll play a public servant To serve and protect by the law and the state I′d bust the punks that rape, steal and murder And leave you be if you crossed me, I′d shake your hand like a man Not a god To see To bleed Cannot be taught In turn, you're making us Fucking hostile! We stand alone Vince! Come meet your maker, boy Some things you ...05. 05-pantera-fucking_hostile-dnr (03:56) 06. 06-pantera-this_love-dnr (06:16) 07. 07-pantera-rise-dnr (04:52) 08. 08-pantera-by_demons_be_driven-dnr (04:16) 09. 09-pantera-hollow-dnr (02:55) 10. 10-pantera-cowboys_from_hell-dnr (04:18) 11. 11-pantera-primal_concrete_sledge-dnr (03:16) 12. 12-pantera-heresy-dnr (04:58)13 Oct 2009 ... Download Fucking Hostile Ringtone to your mobile phone or tablet for free, uploaded by dyrain3. Get Free Ringtones downloads like Fucking ...Best Pantera Fucking Hostile Since 1981 XXX Stronger Than All Gift Top – After approximately 2 weeks you will receive the item. Pantera Fucking Hostile ...Fucking Hostile is a song by Pantera with a tempo of 94 BPM. It can also be used double-time at 188 BPM. The track runs 2 minutes and 49 seconds long with a F♯/G♭ key and a minor mode. It has high energy and is somewhat danceable with a …29 Nov 2023 ... View credits, reviews, tracks and shop for the 1992 Vinyl release of "Fucking Hostile" on Discogs.Fucking Hostile (Pantera cover) Play Video; Note: Far Beyond Driven 25th anniversary show. I was there 3 setlist.fm users were there. Edit setlist Show all edit options.I do not own any rights to this song.Album: Vulgar Display of Power (1992)Official Pantera Playlist - Walk, Cowboys from Hell, Cemetary Gates, I'm Broken, Mouth for War, This Love, Fucking Hostile, 5 Minutes Alone · Playlist · 18 songs · 28K likesPantera Fucking Hostile T-Shirt · 100% cotton · Wash cold; low dry · Imported · Officially licensed ...Fucking Hostile by Pantera The verse and some fills were hard for me to tab. Verse 1 |----repeat-2x----| C -x---------------|-----------------|-x---x---x ...Mar 23, 2022 · #Pantera #FuckingHostilet #RockReactionPantera - Fucking HostileThanks for the 13.6K!! Let's get to 20K subs by the end of March!!Follow your boy on the soci... 27 Aug 2023 ... This video may be inappropriate for some users. Sign in. Pantera-Fucking Hostile. 5 views · 8 hours ago NORTH ISLAND CREDIT UNION ...Live in Buenos Aires, ArgentinaVulgar Display of Power is the sixth studio album by American heavy metal band Pantera. Released on February 25, 1992, through Atco Records, it was the band's second collaboration with producer Terry Date, after having worked with him on their breakthrough album Cowboys from Hell (1990). The album was well received by both critics and fans, and ... 25 Aug 2023 ... Pantera - Fucking Hostile [HD] LIVE 8/17/2023 · Comments.ARTIST. Pantera. ALBUM. Fucking Hostile. LICENSES. WMG (on behalf of Atlantic 0191); BMI - Broadcast Music Inc., LatinAutorPerf, LatinAutor - Warner Chappell, CMRRA, PEDL, Warner Chappell,... Vince! Come meet your maker, boy Some things you can′t enjoy Because of heaven, hell A fucking wives tale They put it in your head Then put you in your bedPeople need robots for dangerous, repetitive and high-precision work. Robots perform tasks in hostile environments that are impossible for humans, while also carrying out repetitious tasks with speed and accuracy. Without robots, our modern...Examples of a hostile work environment include situations where women or people of color are singled out for ridicule, harassment, violence or work sabotage based on their status in protected classes.pantera fucking hostileFILE "Pantera - Vulgar Display Of Power (7567-91758-2).flac" WAVE TRACK 01 AUDIO TITLE "Mouth For War" PERFORMER "Pantera" INDEX 01 00:00:00 TRACK 02 AUDIO TITLE "A New Level" PERFORMER "Pantera" INDEX 01 03:57:17 TRACK 03 AUDIO TITLE "Walk" PERFORMER "Pantera" INDEX 01 07:54:52 TRACK 04 AUDIO TITLE "Fucking Hostile" PERFORMER "Pantera" INDEX ...Fucking hostile (Fottutamente ostili) è la traccia numero quattro del sesto album dei Pantera, Vulgar Display of Power, pubblicato il 25 febbraio del 1992.Nel brano Phil Anselmo urla tutte le sue critiche verso le istituzioni degli Stati Uniti : il presidente (nella prima strofa), la polizia (nella seconda) e la chiesa (nella terza).No credit card needed. Listen to Fucking Hostile on Spotify. Pantera · Song · 2005.7,5cm x 10cm. PANTERA - FUCKING HOSTILE. Κοινή χρήση. Κοινή χρήση · Tweet · Google+ · Pinterest. 6,00 €. με ΦΠΑ. 7,5cm x 10cm. Ποσότητα. Αγορά.. Felice herrig onlyfans leaked